Blackmail(1929)MP-4[DaScubaDude]

seeders: 1
leechers: 1
updated:
Added by dascuba in TV
Torrent verified.

Blackmail(1929)MP-4[DaScubaDude] (Size: 809.35 MiB )
BLACKMAIL_Title2.mp4809.35 MiB

Description

Blackmail (1929)
85 min  |  Crime, Thriller  |  6 October 1929 (USA)
7.0 Your rating:   -/10   Ratings: 7.0/10 from 6,769 users   
Reviews: 74 user | 51 critic
Alice White is the daughter of a shopkeeper in 1920's London. Her boyfriend, Frank Webber is a Scotland Yard detective who seems more interested in police work than in her. Frank takes ... See full summary »

Director: Alfred Hitchcock
Writers: Charles Bennett (from the play by), Alfred Hitchcock (adapted by), 2 more credits »
Stars: Anny Ondra, John Longden, Sara Allgood

General
Complete name                            : C:BlackmailBLACKMAIL_Title2.mp4
Format                                   : MPEG-4
Format profile                           : Base Media
Codec ID                                 : isom
File size                                : 809 MiB
Duration                                 : 1h 25mn
Overall bit rate                         : 1 330 Kbps
Movie name                               : BLACKMAIL
Genre                                    : Classic_Mystery
Writing application                      : Lavf54.6.100

Video
ID                                       : 1
Format                                   : AVC
Format/Info                              : Advanced Video Codec
Format profile                           : [email protected]
Format settings, CABAC                   : No
Format settings, ReFrames                : 6 frames
Format settings, GOP                     : M=1, N=60
Codec ID                                 : avc1
Codec ID/Info                            : Advanced Video Coding
Duration                                 : 1h 25mn
Bit rate                                 : 1 195 Kbps
Width                                    : 720 pixels
Height                                   : 540 pixels
Display aspect ratio                     : 4:3
Frame rate mode                          : Constant
Frame rate                               : 29.970 fps
Color space                              : YUV
Chroma subsampling                       : 4:2:0
Bit depth                                : 8 bits
Scan type                                : Progressive
Bits/(Pixel*Frame)                       : 0.103
Stream size                              : 727 MiB (90%)

Audio
ID                                       : 2
Format                                   : AAC
Format/Info                              : Advanced Audio Codec
Format profile                           : LC
Codec ID                                 : 40
Duration                                 : 1h 25mn
Bit rate mode                            : Constant
Bit rate                                 : 128 Kbps
Channel(s)                               : 2 channels
Channel positions                        : Front: L R
Sampling rate                            : 44.1 KHz
Compression mode                         : Lossy
Stream size                              : 78.2 MiB (10%)

Sharing Widget


Download torrent
809.35 MiB 
seeders:1
leechers:1
Blackmail(1929)MP-4[DaScubaDude]



To share this torrent use the code below and insert it into comments, status messages, forum posts or your signature.

Torrent: Blackmail(1929)MP-4[DaScubaDude]

Trackers

tracker name
udp://tracker.coppersurfer.tk:6969/announce
udp://9.rarbg.me:2710/announce
udp://p4p.arenabg.ch:1337/announce
udp://tracker.leechers-paradise.org:6969/announce
udp://eddie4.nl:6969/announce
udp://thetracker.org:80/announce
udp://tracker.coppersurfer.tk:6969
udp://explodie.org:6969/announce
udp://tracker.aletorrenty.pl:2710/announce
udp://9.rarbg.to:2710/announce
udp://torrent.gresille.org:80/announce
udp://tracker.opentrackr.org:1337/announce
udp://tracker.piratepublic.com:1337/announce
udp://tracker.sktorrent.net:6969/announce
udp://zer0day.ch:1337/announce
??Torrent compatible trackers list

Locations

name
KickassTorrents
Torrent hash: 6C59A6E040B94E56C57CA02994A4C5440E983249

All Comments

audio
0/10
video
0/10
please, leave only comments related to that torrent
Sign In

Report a bug Open chat